<?xml version="1.0" standalone="no"?>
<!DOCTYPE svg PUBLIC "-//W3C//DTD SVG 1.1//EN" "http://www.w3.org/Graphics/SVG/1.1/DTD/svg11.dtd" >
<svg xmlns="http://www.w3.org/2000/svg">
<metadata>Generated by IcoMoon</metadata>
<defs>
<font id="theme-icons" horiz-adv-x="1024">
<font-face units-per-em="1024" ascent="960" descent="-64" />
<missing-glyph horiz-adv-x="1024" />
<glyph unicode="&#x20;" horiz-adv-x="512" d="" />
<glyph unicode="&#xe900;" glyph-name="icon-arrow-bottom" d="M511.979-85.332c5.575 0 10.766 1.071 15.572 3.214s9.163 5.297 13.066 9.463l383.6 383.117c5.508 5.39 9.359 10.572 11.553 15.55s3.29 10.122 3.29 15.434c0 10.767-3.566 19.72-10.698 26.861s-15.962 10.711-26.49 10.711c-5.186 0-10.149-0.815-14.887-2.444s-8.919-4.192-12.542-7.69l-173.766-172.378-188.698-185.143 38.181-19.312v908.829c0 11.047-3.572 20.107-10.716 27.179s-16.299 10.608-27.466 10.608-20.322-3.536-27.466-10.608c-7.144-7.072-10.716-16.132-10.716-27.179v-908.829l38.181 19.312-188.698 185.143-173.766 172.378c-3.378 3.378-7.498 5.912-12.359 7.601s-9.884 2.534-15.071 2.534c-10.528 0-19.358-3.57-26.49-10.711s-10.698-16.094-10.698-26.861c0-10.379 4.025-19.725 12.077-28.039l386.367-386.062c4.286-4.166 8.832-7.32 13.639-9.463s9.808-3.214 15-3.214z" />
<glyph unicode="&#xe901;" glyph-name="icon-arrow-top" d="M511.984 938.667c-5.575 0-10.766-1.072-15.572-3.214s-9.163-5.297-13.066-9.463l-383.6-383.117c-5.508-5.39-9.359-10.572-11.554-15.55s-3.29-10.122-3.29-15.434c0-10.767 3.567-19.72 10.699-26.861s15.962-10.711 26.49-10.711c5.186 0 10.149 0.815 14.887 2.444s8.919 4.192 12.542 7.69l173.766 172.378 188.698 185.142-38.181 19.312v-908.829c0-11.047 3.573-20.107 10.716-27.18s16.299-10.608 27.467-10.608 20.322 3.536 27.467 10.608c7.144 7.072 10.716 16.132 10.716 27.18v908.829l-38.181-19.312 188.698-185.142 173.766-172.378c3.378-3.378 7.498-5.912 12.359-7.601s9.884-2.534 15.071-2.534c10.528 0 19.358 3.571 26.49 10.711s10.699 16.095 10.699 26.861c0 10.379-4.025 19.724-12.076 28.038l-386.367 386.063c-4.285 4.166-8.832 7.32-13.639 9.463s-9.807 3.214-15 3.214z" />
<glyph unicode="&#xe902;" glyph-name="icon-arrow-left" d="M-0.232 426.664c0-5.576 1.073-10.771 3.217-15.58s5.3-9.168 9.468-13.073l383.288-383.771c5.391-5.511 10.578-9.365 15.558-11.558s10.128-3.29 15.441-3.29c10.772 0 19.73 3.567 26.874 10.702s10.716 15.969 10.716 26.501c0 5.189-0.816 10.153-2.445 14.896s-4.194 8.925-7.693 12.549l-172.454 173.845-185.226 188.783-19.321-38.198h909.235c11.052 0 20.115 3.573 27.192 10.72s10.613 16.306 10.613 27.479-3.539 20.331-10.613 27.479c-7.074 7.147-16.14 10.72-27.192 10.72h-909.235l19.321-38.198 185.226 188.783 172.454 173.845c3.381 3.381 5.914 7.502 7.605 12.363s2.536 9.89 2.536 15.078c0 10.533-3.571 19.367-10.716 26.501s-16.102 10.702-26.874 10.702c-10.383 0-19.733-4.028-28.053-12.081l-386.235-386.538c-4.168-4.287-7.325-8.835-9.468-13.644s-3.217-9.811-3.217-15.006z" />
<glyph unicode="&#xe903;" glyph-name="icon-arrow-right" d="M1024.282 426.669c0 5.577-1.072 10.77-3.216 15.58s-5.299 9.167-9.467 13.072l-383.29 383.774c-5.392 5.511-10.578 9.364-15.557 11.558s-10.127 3.291-15.441 3.291c-10.772 0-19.73-3.567-26.874-10.703s-10.716-15.97-10.716-26.502c0-5.189 0.815-10.153 2.445-14.895s4.195-8.924 7.693-12.548l172.456-173.845 185.227-188.783 19.32 38.199h-909.239c-11.052 0-20.116-3.574-27.191-10.721s-10.613-16.307-10.613-27.479 3.538-20.331 10.613-27.479c7.075-7.147 16.14-10.721 27.191-10.721h909.239l-19.32 38.199-185.227-188.783-172.456-173.845c-3.38-3.38-5.915-7.501-7.604-12.364s-2.535-9.89-2.535-15.078c0-10.533 3.572-19.367 10.716-26.502s16.102-10.703 26.874-10.703c10.384 0 19.734 4.028 28.052 12.082l386.237 386.541c4.168 4.287 7.324 8.835 9.467 13.645s3.216 9.811 3.216 15.007z" />
<glyph unicode="&#xe904;" glyph-name="icon-arrow-right-bottom" d="M884.099 54.484c4.049 4.049 7.044 8.598 8.977 13.65s2.809 10.503 2.619 16.369l0.351 557.021c0.085 7.917-0.881 14.481-2.906 19.69s-4.962 9.746-8.824 13.601c-7.821 7.821-16.916 11.736-27.287 11.745s-19.377-3.814-27.027-11.462c-3.77-3.77-6.78-7.965-9.042-12.591s-3.433-9.527-3.524-14.697l-1.009-251.472-2.583-271.595 41.769 13.707-660.264 660.264c-8.025 8.025-17.201 12.014-27.531 11.961s-19.549-4.132-27.659-12.249-12.195-17.333-12.249-27.659c-0.051-10.327 3.933-19.503 11.961-27.531l660.264-660.264 13.707 41.769-271.595-2.583-251.472-1.009c-4.907 0-9.743-1.152-14.499-3.457s-9.023-5.338-12.789-9.109c-7.648-7.648-11.47-16.659-11.462-27.027s3.919-19.467 11.745-27.287c7.539-7.539 17.253-11.404 29.145-11.598l561.169 0.222c6.14 0.085 11.734 1.099 16.785 3.033s9.459 4.791 13.233 8.561z" />
<glyph unicode="&#xe905;" glyph-name="icon-arrow-left-down" d="M139.879 54.615c4.048-4.048 8.596-7.043 13.647-8.975s10.503-2.808 16.365-2.619l556.922-0.351c7.915-0.085 14.481 0.881 19.686 2.906s9.744 4.961 13.599 8.822c7.821 7.821 11.733 16.912 11.743 27.281s-3.813 19.377-11.459 27.023c-3.769 3.769-7.965 6.778-12.591 9.039s-9.525 3.432-14.697 3.523l-251.431 1.008-271.547 2.583 13.707-41.763 660.146 660.146c8.023 8.023 12.012 17.199 11.961 27.528s-4.131 19.544-12.247 27.657-17.329 12.195-27.657 12.247c-10.325 0.051-19.503-3.933-27.528-11.96l-660.146-660.146 41.763-13.707-2.583 271.547-1.008 251.431c0 4.906-1.152 9.741-3.456 14.499s-5.337 9.021-9.107 12.789c-7.646 7.646-16.656 11.468-27.023 11.459s-19.462-3.918-27.281-11.743c-7.537-7.537-11.403-17.253-11.595-29.138l0.222-561.072c0.085-6.139 1.098-11.731 3.033-16.782s4.79-9.459 8.559-13.23z" />
<glyph unicode="&#xe906;" glyph-name="icon-arrow-lef-top" d="M139.86 798.848c-4.049-4.049-7.044-8.598-8.977-13.65s-2.809-10.503-2.619-16.369l-0.351-557.023c-0.085-7.917 0.881-14.481 2.906-19.69s4.962-9.746 8.824-13.601c7.821-7.821 16.916-11.736 27.287-11.745s19.377 3.814 27.027 11.462c3.77 3.77 6.78 7.965 9.042 12.591s3.433 9.527 3.524 14.697l1.009 251.472 2.583 271.595-41.769-13.707 660.264-660.264c8.025-8.025 17.201-12.014 27.531-11.961s19.549 4.132 27.659 12.249 12.195 17.333 12.249 27.659c0.051 10.327-3.933 19.503-11.961 27.531l-660.264 660.264-13.707-41.769 271.595 2.583 251.472 1.009c4.907 0 9.743 1.152 14.499 3.457s9.023 5.338 12.789 9.109c7.648 7.648 11.47 16.659 11.462 27.027s-3.919 19.467-11.745 27.287c-7.539 7.539-17.253 11.404-29.145 11.598l-561.169-0.222c-6.14-0.085-11.734-1.099-16.785-3.033s-9.459-4.791-13.233-8.561z" />
<glyph unicode="&#xe907;" glyph-name="icon-arrow-right-top" d="M884.103 798.719c-4.048 4.048-8.597 7.043-13.647 8.975s-10.503 2.808-16.365 2.619l-556.921 0.351c-7.915 0.086-14.481-0.881-19.686-2.905s-9.743-4.961-13.599-8.822c-7.821-7.821-11.733-16.912-11.742-27.281s3.813-19.377 11.46-27.023c3.768-3.768 7.965-6.778 12.591-9.040s9.525-3.432 14.697-3.523l251.431-1.008 271.547-2.583-13.707 41.762-660.145-660.145c-8.022-8.022-12.011-17.199-11.961-27.527s4.132-19.544 12.247-27.657 17.329-12.195 27.657-12.247c10.325-0.052 19.503 3.933 27.527 11.961l660.145 660.145-41.762 13.707 2.583-271.547 1.008-251.431c0-4.905 1.152-9.741 3.456-14.499s5.337-9.021 9.107-12.789c7.647-7.647 16.657-11.468 27.023-11.46s19.463 3.918 27.281 11.742c7.537 7.537 11.403 17.253 11.596 29.138l-0.223 561.071c-0.086 6.139-1.099 11.731-3.033 16.781s-4.79 9.459-8.559 13.23z" />
<glyph unicode="&#xe908;" glyph-name="icon-chevron-down-solid" d="M512.402 170.531c10.392 0.102 20.052 2.135 28.978 6.104s17.406 10.067 25.437 18.296l365.024 372.989c12.885 12.851 19.326 28.397 19.326 46.638 0 12.627-3.003 24.112-9.009 34.452s-14.114 18.557-24.327 24.651-21.546 9.141-34.005 9.141c-18.708 0-35.185-7.083-49.429-21.249l-343.376-352.597h43.040l-343.992 352.597c-14.225 14.166-30.752 21.249-49.58 21.249-12.565 0-23.926-3.047-34.085-9.141s-18.268-14.31-24.327-24.651c-6.059-10.34-9.088-21.823-9.088-34.452 0-9.125 1.627-17.592 4.878-25.4s8.071-14.995 14.457-21.565l365.178-372.663c16.535-16.267 34.834-24.401 54.897-24.401z" />
<glyph unicode="&#xe909;" glyph-name="icon-chevron-down" d="M512.117 127.866c6.24 0 12.205 1.388 17.893 4.166s10.746 6.597 15.174 11.463l466.125 507.474c8.616 9.167 12.923 19.387 12.923 30.658 0 8.215-1.879 15.666-5.637 22.359s-8.774 11.945-15.049 15.762c-6.275 3.817-13.452 5.722-21.53 5.722-11.677 0-21.71-4.104-30.095-12.311l-466.818-507.326h53.986l-467.212 507.326c-7.969 8.207-18.003 12.311-30.095 12.311-7.944 0-15.085-1.909-21.423-5.722s-11.354-9.069-15.049-15.762-5.54-14.144-5.54-22.359c0-6.183 1.177-11.866 3.531-17.053s5.549-9.933 9.586-14.242l465.743-507.038c10.231-10.286 21.395-15.428 33.489-15.428z" />
<glyph unicode="&#xe90a;" glyph-name="icon-minus" d="M42.342 384.004h939.573c7.728 0 14.852 1.899 21.371 5.697s11.678 8.957 15.476 15.476 5.697 13.722 5.697 21.608c0 7.728-1.899 14.852-5.697 21.371s-8.957 11.678-15.476 15.476c-6.519 3.798-13.643 5.697-21.371 5.697h-939.573c-7.596 0-14.582-1.899-20.956-5.697s-11.533-8.957-15.476-15.476c-3.943-6.519-5.915-13.643-5.915-21.371 0-7.886 1.972-15.089 5.915-21.608s9.102-11.678 15.476-15.476c6.374-3.798 13.359-5.697 20.956-5.697z" />
<glyph unicode="&#xe90b;" glyph-name="icon-plus" d="M511.997-85.333c7.693 0 14.647 1.852 20.866 5.558s11.25 8.596 15.096 14.673c3.846 6.077 5.77 12.884 5.77 20.422v429.519h416.437c7.538 0 14.488 1.852 20.846 5.558s11.391 8.737 15.096 15.096 5.558 13.385 5.558 21.078c0 7.538-1.852 14.488-5.558 20.846s-8.737 11.391-15.096 15.096c-6.36 3.705-13.308 5.558-20.846 5.558h-416.437v429.934c0 7.538-1.923 14.384-5.77 20.538s-8.879 11.045-15.096 14.677c-6.218 3.631-13.173 5.447-20.866 5.447-7.41 0-14.295-1.816-20.654-5.447s-11.39-8.524-15.091-14.677-5.552-13-5.552-20.538v-429.934h-417.054c-7.41 0-14.224-1.852-20.441-5.558s-11.25-8.737-15.096-15.096c-3.846-6.36-5.77-13.308-5.77-20.846 0-7.693 1.923-14.718 5.77-21.078s8.879-11.391 15.096-15.096c6.218-3.705 13.031-5.558 20.441-5.558h417.054v-429.519c0-7.538 1.851-14.346 5.552-20.422s8.733-10.967 15.091-14.673c6.36-3.705 13.244-5.558 20.654-5.558z" />
<glyph unicode="&#xe90c;" glyph-name="icon-search" d="M1014.669-31.143l-261.67 261.67c64.793 75.121 104.137 172.82 104.137 279.565 0 236.333-192.296 428.575-428.575 428.575s-428.575-192.296-428.575-428.575 192.296-428.575 428.575-428.575c106.745 0 204.44 39.344 279.565 104.137l261.67-261.67c6.176-6.176 14.321-9.317 22.414-9.317 8.146 0 16.238 3.141 22.414 9.317 12.511 12.351 12.511 32.476 0.053 44.881zM428.553 144.975c-201.305 0-365.116 163.77-365.116 365.116 0 201.305 163.77 365.116 365.116 365.116 201.305 0 365.116-163.77 365.116-365.116 0-201.305-163.824-365.116-365.116-365.116z" />
<glyph unicode="&#xe90d;" glyph-name="icon-phone" d="M803.552 283.567c62.762-34.881 125.567-69.762 188.33-104.646 27.001-15 38.881-46.841 28.241-75.842-54.001-147.522-212.169-225.41-360.971-171.085-304.69 111.199-530.571 337.090-641.822 641.822-54.322 148.802 23.561 306.974 171.085 360.971 29.040 10.641 60.842-1.2 75.883-28.241 34.841-62.762 69.722-125.567 104.605-188.33 16.361-29.441 12.521-64.402-9.88-89.523-29.321-32.961-58.602-65.962-87.922-98.882 62.562-152.325 191.647-281.445 343.972-343.972 32.921 29.321 65.922 58.602 98.883 87.922 25.2 22.361 60.082 26.201 89.523 9.88z" />
<glyph unicode="&#xe90e;" glyph-name="icon-top" d="M140.651 871.241h742.474c6.107 0 11.736 1.5 16.888 4.502s9.228 7.078 12.229 12.229 4.502 10.844 4.502 17.075c0 6.107-1.5 11.736-4.502 16.888s-7.078 9.228-12.229 12.229c-5.152 3.002-10.781 4.502-16.888 4.502h-742.474c-6.003 0-11.522-1.5-16.559-4.502s-9.113-7.078-12.229-12.229c-3.116-5.152-4.674-10.781-4.674-16.888 0-6.231 1.558-11.923 4.674-17.075s7.192-9.228 12.229-12.229c5.037-3.002 10.557-4.502 16.559-4.502zM480.539 739.212c-4.488 0-8.669-0.863-12.539-2.588s-7.378-4.265-10.521-7.62l-308.882-308.494c-4.435-4.339-7.537-8.514-9.302-12.521s-2.649-8.151-2.649-12.428c0-8.67 2.872-15.88 8.615-21.629s12.853-8.626 21.33-8.626c4.176 0 8.172 0.656 11.988 1.968s7.182 3.376 10.099 6.193l139.92 138.802 151.944 149.081-30.745 15.55v-731.806c0-8.895 2.876-16.19 8.629-21.885s13.125-8.543 22.116-8.543 16.363 2.848 22.116 8.543 8.629 12.99 8.629 21.885v731.806l-30.745-15.55 151.944-149.081 139.92-138.802c2.72-2.72 6.038-4.76 9.952-6.121s7.96-2.040 12.136-2.040c8.478 0 15.588 2.875 21.33 8.626s8.615 12.96 8.615 21.629c0 8.358-3.242 15.883-9.724 22.578l-311.111 310.865c-3.451 3.355-7.111 5.895-10.983 7.62s-7.897 2.588-12.078 2.588z" />
<glyph unicode="&#xe90f;" glyph-name="injury-car" d="M82.058 838.587c83.252 0 124.271-23.096 190.261-78.322 20.925-17.512 60.038-49.915 99.177-82.278l9.775-8.081c47.145-38.971 92.117-76.065 102.871-84.936l217.98-68.657c45.319-9.843 79.405-52.802 79.405-100.287v-149.468c0-10.586-3.847-20.785-10.861-28.704l-55.436-62.79c-8.178-9.309-20.041-14.659-32.502-14.659l-53.356-0.014c-8.138-81.667-77.24-145.645-161.014-145.645-83.78 0-152.899 63.987-161.032 145.661l-307.505 0.002v32.325l307.508 0.002c8.143 81.651 77.257 145.626 161.030 145.626 83.778 0 152.882-63.983 161.016-145.642l53.356 0.009c3.184 0 6.19 1.342 8.259 3.701l55.452 62.823c1.778 2.020 2.763 4.606 2.763 7.305l-0.011 114.186-43.992-0.003c-8.921 0-16.162 7.241-16.162 16.162s7.241 16.162 16.162 16.162l43.992 0.003 0.011 2.957c0 32.243-23.936 62.467-54.483 68.819l-1.568 0.404-224.703 70.774-2.441 2.004s-56.823 46.852-113.98 94.112l-8.788 7.268c-36.566 30.244-72.077 59.677-91.655 76.065-63.469 53.109-96.86 70.791-169.526 70.791h-82.233v32.325zM468.356 306.037c-71.405 0-129.507-58.087-129.507-129.475 0-71.405 58.103-129.491 129.507-129.491s129.491 58.087 129.491 129.491c0 71.388-58.087 129.475-129.491 129.475zM747.681 814.795c-2.974 5.786-9.245 9.293-15.581 8.727-6.481-0.468-12.041-4.784-14.109-10.942l-41.117-122.025c-1.050-3.119-4.186-5.042-7.483-4.655l-128.344 16.776c-6.254 0.76-12.38-2.069-15.742-7.386s-3.329-12.122 0.080-17.406l60.722-93.999 27.153 17.536-41.78 64.681 93.773-12.251c18.458-2.425 36.284 8.711 42.248 26.377l28.898 85.773 42.118-82.007c9.617-18.668 32.098-26.457 51.121-17.762l101.676 46.127-48.907-98.816c-9.019-18.214-2.78-40.050 14.513-50.781l73.425-45.481-83.478-27.945c-17.52-5.867-28.445-22.821-26.571-41.262l10.748-104.553-29.108 24.632-20.881-24.664 59.736-50.555c2.99-2.521 6.708-3.831 10.441-3.831 2.586 0 5.172 0.614 7.548 1.875 5.834 3.071 9.213 9.374 8.533 15.936l-14.853 144.458c-0.324 3.217 1.632 6.287 4.671 7.305l116.109 38.87c5.948 2.004 10.215 7.241 10.926 13.463 0.728 6.222-2.214 12.316-7.532 15.613l-102.678 63.615c-3.071 1.907-4.17 5.754-2.586 8.97l69.013 139.416c3.039 6.126 1.875 13.495-2.877 18.408-4.719 4.897-12.024 6.287-18.28 3.475l-142.987-64.843c-3.361-1.552-7.305-0.146-8.97 3.119l-59.59 116.012zM21.612 427.713c-8.921 0-16.162-7.241-16.162-16.162s7.241-16.162 16.162-16.162h54.062c8.921 0 16.162 7.241 16.162 16.162s-7.241 16.162-16.162 16.162zM-0.187 743.482v-32.325h67.606c37.512 0 43.897-5.059 93.644-44.414 4.674-3.692 10.551-8.491 17.226-14.036l5.908-4.926c10.139-8.485 21.669-18.278 33.405-28.321l7.056-6.047c1.177-1.010 2.354-2.020 3.529-3.030l7.024-6.041c32.605-28.076 62.176-53.959 62.699-54.421 3.119-2.731 4.218-7.192 2.763-11.055-1.487-3.927-5.188-6.481-9.407-6.481h-291.453v-32.325h291.453c17.504 0 33.423 10.99 39.646 27.379 6.174 16.405 1.487 35.185-11.653 46.741-0.587 0.518-39.402 34.495-77.397 67.053l-7.105 6.080c-21.228 18.137-41.424 35.135-53.637 44.786-51.185 40.486-64.94 51.379-113.701 51.379z" />
<glyph unicode="&#xe910;" glyph-name="injury-personal" d="M923.713 410.303c5.575-5.189 5.892-13.909 0.703-19.497l-227.675-244.924c-0.625-0.676-1.303-1.275-2.022-1.797l-127.78-222.491c-2.539-4.443-7.189-6.927-11.977-6.927-2.332 0-4.691 0.579-6.858 1.835-6.61 3.795-8.9 12.226-5.092 18.835l124.504 216.897-153.246 112.982-179.278-175.402c-2.677-2.622-6.168-3.932-9.645-3.932-3.588 0-7.161 1.394-9.866 4.154-5.326 5.436-5.23 14.185 0.22 19.511l176.063 172.256-15.109 11.13c-6.141 4.526-7.451 13.163-2.926 19.29 4.512 6.141 13.136 7.451 19.29 2.926l191.896-141.462 219.299 235.913c5.202 5.589 13.937 5.892 19.497 0.703zM470.871 822.363l101.185-91.429 121.579-21.512c3.202-0.621 6.085-1.118 8.914-1.601 17.055-2.884 34.676-5.865 55.898-24.63 27.611-24.368 112.21-156.171 122.131-173.405 12.956-22.492 5.367-40.898-3.795-55.94l-86.972-139.365c-0.4-0.842-9.148-16.958-27.376-22.464-3.27-0.979-7.341-1.752-12.060-1.752-7.134 0-15.799 1.752-25.528 7.161-20.049 11.287-34.938 34.883-23.071 62.259l51.33 121.344-7.948 9.287c-20.215-33.034-65.764-106.884-86.572-136.053-12.129-17.027-40.609-44.956-95.334-39.836-20.725 0.097-55.428 13.729-77.851 30.978-3.437 2.637-7.779 5.976-12.792 9.834l-147.49-159.791c-0.607-0.649-1.269-1.242-1.973-1.767-5.575-4.098-15.289-8.252-26.949-8.252-12.35 0-26.88 4.65-41.023 18.931-29.984 30.26-19.911 57.871-9.756 69.145l117.627 166.299c-5.304 4.098-9.725 7.515-12.94 9.999l-150.915-50.033c-12.667-5.423-43.963-7.755-64.246 25.030-11.811 18.987-16.379 55.235 6.306 71.076 43.107 30.178 193.386 95.32 199.775 98.080 16.282 7.286 31.903 7.769 43.851 1.311l156.241-83.619 52.034 95.375c-51.896 14.847-88.78 26.783-102.881 40.099-10.321 9.756-25.551 27.984-40.562 46.964l-4.988 6.344c-22.347 28.578-42.915 56.913-44.389 58.942-14.088 17.303-9.99 43.824 9.99 61.086 25.61 22.023 50.792 10.901 60.548 1.904zM384.914 422.91l-117.498-166.115c-0.427-0.593-0.896-1.159-1.408-1.684-1.573-1.794-9.563-12.819 8.776-31.337 15.109-15.262 27.307-10.542 31.267-8.306l144.607 156.687c-5.895 4.547-12.109 9.341-18.453 14.237l-16.092 12.422c-10.783 8.326-21.482 16.589-31.2 24.096zM428.331 799.554c-7.134-6.168-11.728-16.475-6.112-23.375 0.628-0.845 21.591-29.726 43.933-58.355l4.802-6.12c14.428-18.288 28.866-35.638 38.278-44.533 7.629-7.202 34.16-16.477 62.199-25.024l8.44-2.54c12.675-3.769 25.303-7.332 36.3-10.437 4.043-1.132 7.893-4.208 9.521-8.072 1.628-3.878 1.973-8.445-0.041-12.129l-66.84-122.544c-3.642-6.651-11.95-9.107-18.628-5.561l-168.384 90.104c-4.112 2.208-11.604 1.338-19.663-2.263-1.697-0.745-154.226-66.853-195.069-95.43 0-0.014-0.014-0.014-0.014-0.014-6.306-4.401-5.589-22.782 1.338-33.903 12.28-19.856 28.191-14.916 31.267-13.715l158.724 52.669c4.347 1.449 9.148 0.635 12.777-2.18 0.001 0 1.009-0.778 2.858-2.206l2.123-1.64c10.362-8.004 35.487-27.417 61.944-47.843l13.441-10.376c24.615-18.999 48.426-37.361 60.696-46.777 17.69-13.619 46.253-25.21 62.383-25.32 42.155-3.808 62.797 16.117 71.504 28.315 9.759 13.676 25.515 38.116 41.436 63.383l4.548 7.233c24.984 39.813 48.999 79.334 49.405 80.008 2.29 3.781 6.265 6.223 10.68 6.582 0.373 0.041 0.745 0.056 1.118 0.056 4.015 0 7.852-1.752 10.473-4.83l25.845-30.246c3.408-3.974 4.264-9.521 2.236-14.337l-54.697-129.305c-6.788-15.702 6.817-24.865 11.149-27.307 6.099-3.381 11.508-4.43 15.992-3.119 7.313 2.111 11.563 9.783 11.604 9.852l87.386 140.083c8.499 13.937 7.92 19.814 3.366 27.68-13.715 23.83-94.354 146.981-116.473 166.493-15.33 13.551-27.21 15.565-42.237 18.118-3.063 0.51-6.182 1.049-9.355 1.67l-125.222 22.16c-2.567 0.456-4.94 1.614-6.858 3.353l-104.221 94.161c-3.132 2.677-11.894 7.934-23.954-2.414zM922.048 542.158c14.764-11.701 24.12-28.467 26.314-47.205 2.194-18.794-3.077-37.283-14.847-52.062-2.719-3.422-6.734-5.202-10.805-5.202-3.008 0-6.030 0.979-8.569 2.995-5.975 4.747-6.954 13.426-2.208 19.401 7.134 8.983 10.349 20.229 9.024 31.681-1.338 11.411-7.037 21.623-16.048 28.77-5.975 4.733-6.982 13.412-2.249 19.387 4.733 5.948 13.426 6.968 19.387 2.236zM152.31 556.060c7.341 0.193 13.854-6.071 13.909-13.702 0.055-7.617-6.072-13.84-13.688-13.895-13.439-0.11-26.011-5.436-35.407-15.013-9.438-9.576-14.557-22.23-14.447-35.697 0.056-7.617-6.058-13.854-13.688-13.909h-0.11c-7.576 0-13.744 6.099-13.798 13.688-0.179 20.836 7.769 40.471 22.367 55.263 14.544 14.82 34.041 23.099 54.863 23.265zM734.746 938.667c59.803 0 108.443-48.654 108.443-108.443 0-59.803-48.64-108.456-108.443-108.456s-108.443 48.654-108.443 108.456c0 59.789 48.64 108.443 108.443 108.443zM734.746 911.070c-44.569 0-80.846-36.263-80.846-80.846s36.277-80.86 80.846-80.86 80.846 36.277 80.846 80.86-36.277 80.846-80.846 80.846zM488.4 872.085c5.809-4.94 6.513-13.647 1.573-19.456-4.926-5.823-13.632-6.513-19.443-1.587-9.976 8.486-22.726 12.529-35.807 11.508-13.109-1.062-25.003-7.161-33.475-17.137-2.732-3.215-6.624-4.871-10.528-4.871-3.16 0-6.334 1.076-8.928 3.284-5.809 4.94-6.513 13.647-1.587 19.443 13.261 15.606 31.833 25.127 52.282 26.783 20.449 1.614 40.305-4.719 55.911-17.966z" />
<glyph unicode="&#xe911;" glyph-name="njury-bike" d="M609.098 745.754c40.846 0 90.19-20.888 108.382-67.552 11.319-29.086 37.867-109.581 48.571-142.261l131.225-2.444c31.75-0.111 56.217-25.302 56.679-58.628 0.483-40.657-32.796-59.354-49.869-59.937l-139.278-9.703 25.624-83.228c13.331 2.933 27.175 4.479 41.372 4.479 106.112 0 192.439-86.327 192.439-192.424 0-106.112-86.327-192.424-192.439-192.424-106.081 0-192.408 86.312-192.408 192.424 0 80.843 50.122 150.206 120.912 178.648l-27.801 90.27-23.492-1.648c-6.422 0-12.42 0.724-17.983 2.152l-132.416-139.223c-0.732-11.302-1.533-23.198-2.374-35.182l-1.082-15.169c-2.748-37.853-5.77-74.471-8.143-93.915-5.297-42.832-27.62-64.525-66.353-64.525-42.391 0-63.815 35.171-65.786 67.851l-8.576 197.563c-9.415 11.344-27.758 33.727-48.018 59.981l-54.106-90.411c48.672-34.954 80.435-92.036 80.435-156.392 0-106.112-86.327-192.424-192.424-192.424s-192.408 86.312-192.408 192.424c0 106.097 86.312 192.424 192.408 192.424 30.474 0 59.319-7.123 84.954-19.79l60.619 101.288c-10.384 14.021-20.667 28.415-29.971 42.285l-43.004-0.006c-8.702 0-15.765 7.062-15.765 15.765s7.062 15.765 15.765 15.765l23.172 0.010c-5.702 9.878-10.355 18.983-13.526 26.87-13.146 32.704-11.813 80.218 30.393 117.032l-82.549-0.013c-8.702 0-15.765 7.062-15.765 15.765s7.062 15.765 15.765 15.765l127.384 0.009c66.737 40.768 175.482 88.528 259.441 88.528zM831.803 294.951c-10.974 0-21.695-1.104-32.058-3.209l47.129-153.043c2.554-8.324-2.112-17.136-10.437-19.706-1.545-0.472-3.106-0.709-4.635-0.709-6.747 0-12.975 4.351-15.071 11.13l-47.129 153.025c-57.914-24.374-98.679-81.712-98.679-148.382 0-88.708 72.171-160.895 160.879-160.895 88.724 0 160.91 72.186 160.91 160.895s-72.186 160.895-160.91 160.895zM192.187 294.951c-88.708 0-160.879-72.186-160.879-160.895s72.171-160.895 160.879-160.895 160.895 72.186 160.895 160.895c0 52.885-25.657 99.898-65.174 129.244l-82.193-137.347c-2.948-4.935-8.182-7.662-13.542-7.662-2.759 0-5.549 0.725-8.088 2.238-7.457 4.478-9.9 14.156-5.423 21.629l82.222 137.374c-20.844 9.884-44.137 15.417-68.696 15.417zM609.098 714.224c-60.519 0-135.265-27.020-194.907-57.011l10.895 0.002c8.702 0 15.765-7.062 15.765-15.765s-7.062-15.765-15.765-15.765l-66.669 0.004c-12.215-7.82-22.602-15.249-30.593-21.819-31.955-26.311-33.421-60.363-24.152-83.443 16.916-42.029 89.827-135.088 130.248-183.438 2.223-2.664 3.5-5.975 3.658-9.428l8.78-202.608c0.22-3.658 3.184-37.962 34.304-37.962 22.512 0 31.703 9.632 35.076 36.842 4.808 39.506 12.391 151.845 14.677 197.642 0.599 12.234-2.538 24.75-9.6 38.293l-74.724 142.86c-2.207 4.209-2.381 9.206-0.489 13.573 1.907 4.382 5.675 7.662 10.263 8.923l156.402 43.148c7.41 2.081 15.324-1.608 18.539-8.654l47.941-105.135c6.322-15.559 14.74-21.677 29.275-21.677l34.11 2.417c0.48 0.055 0.959 0.089 1.437 0.099l158.88 11.088c0.363 0.031 20.274 4.745 19.977 28.061-0.224 16.127-10.708 27.447-25.48 27.494l-142.686 2.649c-6.716 0.126-12.612 4.493-14.709 10.878-6.369 19.58-38.844 118.881-51.44 151.262-12.801 32.791-48.902 47.467-79.013 47.467zM607.695 534.302l-124.604-34.367 65.676-125.566c9.743-18.665 14.030-36.479 13.132-54.467-0.106-2.121-0.222-4.385-0.35-6.776l101.732 106.917c-5.459 5.957-9.969 13.299-13.494 21.973zM932.832 886.53c58.708-31.325 83.585-98.372 72.991-142.545-5.261-21.931-18.992-35.62-36.998-37.161-0.634-3.549-1.437-7.067-2.391-10.529-8.545-31.246-28.754-57.289-56.895-73.337-18.555-10.594-39.096-15.985-59.89-15.985-10.752 0-21.551 1.435-32.207 4.351-64.509 17.656-102.644 84.53-85.003 149.055 0.58 2.12 1.229 4.255 1.946 6.393-2.521 3.719-4.352 8.064-5.418 12.919-3.817 17.466 2.948 37.656 11.774 53.007-11.839 16.924-18.991 34.755-16.963 52.082 0.709 5.99 4.776 11.083 10.5 13.053 4.367 1.529 108.587 36.732 198.557-11.303zM832.872 752.45l-0.333-0.058c-8.827-1.845-25.919-4.828-43.887-4.828-7.071 0-14.278 0.462-21.17 1.64l-5.1 1.037-0.38-1.567c-10.836-46.704 17.165-94.18 63.764-106.938 23.143-6.322 47.31-3.263 68.151 8.608 20.825 11.886 35.786 31.166 42.108 54.278 0.478 1.729 0.906 3.478 1.281 5.244-24.072 5.096-53.697 16.317-88.529 33.555-3.426 1.699-8.985 4.79-15.903 9.032zM258.678 736.139c-8.702 0-15.765-7.062-15.765-15.765s7.062-15.765 15.765-15.765h123.879c8.702 0 15.765 7.062 15.765 15.765s-7.062 15.765-15.765 15.765zM755.967 871.318c8.717-33.121 71.383-82.086 106.79-99.648 44.52-22.023 81.582-34.162 102.786-33.452 5.864 0.094 8.686 9.222 9.617 13.132 6.873 28.565-9.191 81.771-57.179 107.373-62.018 33.090-134.505 19.643-162.014 12.596zM763.052 806.501l-0.355-0.913c-2.935-7.955-3.845-14.985-2.927-19.165 0.157-0.709 0.489-1.955 1.072-2.301 6.837-4.101 19.436-5.425 33.354-4.888-10.537 8.206-21.298 17.408-31.144 27.267z" />
<glyph unicode="&#xe912;" glyph-name="njury-medical" d="M364.957 778.954c20.427 0 34.717-13.101 44.881-24.511l159.095-180.841 43.849-25.5-14.406-24.784-45.869 26.691c-1.333 0.774-2.537 1.763-3.555 2.924l-160.587 182.518c-6.837 7.669-14.449 14.836-23.408 14.836-4.2 0-8.987-1.505-14.219-4.472-62.483-35.606-96.928-56.72-133.394-79.068-31.621-19.379-64.317-39.419-117.756-70.467-4.472-3.727-6.752-8.443-7.139-14.721-1.046-16.986 12.198-39.62 25.816-53.209l49.935-56.343c0.169-0.182 0.334-0.37 0.495-0.561l121.896-137.625c2.494-2.394 5.92-5.017 9.489-7.067l349.841-203.402c6.752-3.928 9.704-4.358 15.925-1.993 62.081 36.079 99.15 58.455 138.397 82.15 33.098 19.968 67.743 40.895 120.751 72.044 3.124 1.834 6.365 7.841 6.551 17.144 0.33 16.499-9.145 40.451-36.739 58.226l-152.33 88.585 14.421 24.77 152.888-88.915c38.057-24.511 50.901-59.014 50.414-83.238-0.373-18.462-8.099-33.886-20.669-41.268-52.879-31.091-87.453-51.947-120.465-71.886l-17.441-10.521c-4.856-2.927-9.742-5.869-14.712-8.856l-16.774-10.058c-3.671-2.195-7.412-4.429-11.242-6.71l8.388-13.786c2.942 0.546 5.973 0.825 9.060 0.825h0.028c14.406 0 28.812-6.178 39.534-16.928 9.919-9.905 15.868-22.719 16.771-36.065 0.961-14.105-3.741-27.092-13.244-36.581-8.658-8.672-20.254-13.331-32.94-13.345-1.189 0-2.394 0.043-3.612 0.129-13.359 0.931-26.16 6.895-36.079 16.799-20.558 20.6-22.515 52.245-4.729 71.4l-7.83 12.926c-16.163-9.547-34.14-20.084-54.935-32.166-0.702-0.415-1.447-0.774-2.221-1.046-4.573-1.749-9.934-3.799-17.144-3.799-7.898 0-15.896 2.423-24.44 7.397l-90.534 52.649-136.849-11.238 73.913-123.19c4.019 0.734 8.202 0.961 12.475 0.65 13.345-0.903 26.16-6.866 36.079-16.799 10.751-10.751 16.914-25.185 16.9-39.591 0-12.728-4.745-24.454-13.373-33.054-8.672-8.687-20.268-13.345-32.969-13.345-1.175 0-2.365 0.028-3.555 0.115-13.359 0.917-26.189 6.881-36.108 16.799-20.57 20.612-22.506 52.324-4.647 71.499l-80.58 134.309-154.533-12.705c-1.109-10.715-5.67-20.456-13.095-27.868-8.586-8.615-20.326-13.359-33.054-13.359h-0.014c-14.406-0.014-28.826 6.164-39.548 16.9-21 21.028-22.59 53.624-3.569 72.675 19.093 19.050 51.661 17.43 72.66-3.584 4.831-4.831 8.733-10.406 11.564-16.39l143.134 11.753-88.93 148.202-177.496 106.626c-4.43 2.666-7.081 7.511-6.952 12.657 0.143 5.174 3.039 9.862 7.597 12.299l40.89 21.779-37.499 42.329c-16.269 16.198-35.334 45.998-33.57 74.624 0.917 14.764 7.411 27.264 18.807 36.136 0.516 0.401 1.046 0.746 1.606 1.090 53.695 31.162 86.449 51.244 118.1 70.639 36.666 22.476 71.313 43.69 134.212 79.555 9.632 5.462 19.179 8.213 28.396 8.213zM491.010-11.102c-5.075 0-9.575-1.72-12.8-4.946-7.855-7.869-6.264-22.261 3.555-32.109 5.017-5.031 11.324-8.027 17.76-8.457 5.648-0.502 10.779 1.348 14.334 4.902 4.1 4.085 4.96 9.217 4.96 12.786 0.014 6.852-3.096 13.89-8.5 19.308h-0.014c-5.003 5.031-11.309 8.027-17.746 8.471-0.516 0.028-1.032 0.043-1.548 0.043zM776.357 101.193h-0.014c-3.584 0-8.715-0.86-12.843-4.974-7.855-7.855-6.25-22.233 3.584-32.080 5.017-5.017 11.324-8.027 17.76-8.457 5.748-0.459 10.779 1.333 14.32 4.874 3.555 3.555 5.303 8.658 4.916 14.363-0.389 5.632-2.731 11.175-6.671 15.825l-1.786 1.935s0 0-0.014 0.014c-5.39 5.404-12.399 8.5-19.25 8.5zM165.523 157.745c-4.874 0-9.446-1.634-12.815-5.003-7.855-7.855-6.264-22.275 3.584-32.123 5.39-5.404 12.413-8.5 19.266-8.5h0.014c3.569 0 8.701 0.86 12.786 4.96 4.1 4.1 4.96 9.203 4.96 12.772 0.014 6.866-3.082 13.919-8.486 19.323h-0.014c-5.619 5.648-12.744 8.572-19.294 8.572zM324.449 279.421l67.213-112.007 109.929 9.031zM457.947 550.074c46.256 0 89.847-21.072 119.576-57.796 3.311-4.085 4.114-9.676 2.078-14.535-2.021-4.859-6.551-8.213-11.797-8.744-11.553-1.161-43.303-9.919-96.139-64.418 23.895-25.4 58.139-48.005 101.96-67.342 11.081-4.874 18.907-14.836 21.473-27.306 2.753-13.373-0.659-27.594-8.701-36.223-10.708-11.468-24.21-15.653-36.839-15.653-7.052 0-13.832 1.304-19.71 3.368-57.194 20.054-112.007 59.459-132.993 77.49-40.465 34.617-62.283 76.387-59.86 114.587 1.935 30.289 18.391 56.434 47.59 75.599 20.871 13.718 46.213 20.971 73.291 20.971zM457.947 521.406h-0.072c-21.171 0-41.598-5.762-57.552-16.269h-0.014c-21.673-14.219-33.341-32.209-34.703-53.453-1.849-29.128 16.341-62.283 49.898-91.008 15.767-13.532 68.69-52.865 123.848-72.201 3.827-1.333 16.972-4.96 26.074 4.787 1.090 1.161 2.608 5.948 1.591 10.894-1.046 5.132-3.999 6.436-4.96 6.852-53.352 23.537-94.019 52.076-120.88 84.83-4.529 5.533-4.285 13.574 0.573 18.821 41.598 44.996 73.893 66.453 97.544 76.086-22.677 19.681-51.345 30.661-81.347 30.661zM154.46 444.293l-24.621-13.122 77.5-46.566zM787.723 749.434c44.708-1.993 80.701-47.159 80.701-83.224 0-46.572-12.716-94.207-39.567-132.242l-0.015-77.354h-28.668l0.017 45.434c-28.261-24.712-65.685-41.333-112.98-44.544h-0.101c-26.647 0-44.063 12.599-47.546 33.685-2.623 15.84 0.286 30.646 7.998 40.637 6.164 7.97 14.979 12.686 25.5 13.647 41.813 3.813 70.152 28.195 84.214 72.459l27.321-8.672c-17.631-55.517-55.301-87.453-108.954-92.341-3.197-0.286-4.515-1.491-5.404-2.623-2.723-3.527-3.67-10.765-2.394-18.42 0.401-2.408 1.606-9.733 18.391-9.733 113.054 7.712 153.519 101.831 153.519 180.067 0 19.738-21.888 50.528-49.596 54.255l-51.087-27.937c-5.103-2.81-11.424-2.221-15.954 1.477l-31.42 25.687c-27.751-5.146-54.628-27.822-54.628-59.975v-81.977h-28.668v81.977c0 45.31 37.813 84.528 86.12 89.302 3.799 0.33 7.54-0.774 10.478-3.168l28.783-23.537 46.429 25.371c2.294 1.262 4.902 1.892 7.511 1.749zM330.169 693.991c47.59 0 86.306-38.702 86.306-86.292 0-47.576-38.716-86.292-86.306-86.292s-86.306 38.716-86.306 86.292c0 47.59 38.716 86.292 86.306 86.292zM330.169 665.322c-31.779 0-57.638-25.845-57.638-57.623 0-31.764 25.859-57.623 57.638-57.623s57.638 25.859 57.638 57.623c0 31.779-25.859 57.623-57.638 57.623zM741.649 938.665c47.834 0 86.751-38.917 86.751-86.751 0-47.848-38.917-86.751-86.751-86.751s-86.737 38.903-86.737 86.751c0 47.834 38.903 86.751 86.737 86.751zM741.649 909.997c-32.022 0-58.068-26.045-58.068-58.082 0-32.022 26.045-58.082 58.068-58.082s58.082 26.060 58.082 58.082c0 32.037-26.060 58.082-58.082 58.082z" />
<glyph unicode="&#xe913;" glyph-name="njury-slip" d="M607.932 805.699c22.874-19.767 27.527-50.107 10.851-70.59-2.326-3.286-70.491-97.189-100.931-125.967-16.123-15.211-56.225-28.226-115.458-45.146l57.884-106.137 175.652 93.984c13.584 7.354 31.414 6.8 50.188-1.561 1.375-0.595 9.023-3.91 20.797-9.112l5.719-2.532c21.987-9.753 54.839-24.542 88.141-40.328l10.186-4.854c40.713-19.507 80.511-39.888 100.33-53.751 25.981-18.090 20.808-59.479 7.305-81.148-23.102-37.353-58.811-34.636-74.478-28.031l-168.576 55.85c-3.489-2.697-8.181-6.325-13.767-10.643l132.217-186.943c7.773-8.645 15.496-25.623 9.521-46.243 127.232-5.042 220.489-51.195 220.489-111.287 0-63.708-104.818-111.75-243.834-111.75-139.031 0-243.867 48.041-243.867 111.75 0 1.969-8.558 6.296-17.684 6.296-97.791 0-174.416 39.158-174.416 89.152 0 51.051 82.059 89.543 190.864 89.543 22.461 0 44.295-1.433 64.459-4.167l-62.306 67.489c-5.458-4.203-10.194-7.845-13.966-10.74-25.363-19.507-64.684-34.945-89.51-35.108-60.503-5.613-92.975 25.932-106.755 45.276-23.313 32.667-74.104 114.971-97.156 152.632l-8.036-9.403 57.77-136.543c13.503-31.187-3.481-58.144-26.323-70.931-11.144-6.199-21.052-8.215-29.218-8.215-5.401 0-10.038 0.879-13.779 2.001-20.824 6.313-30.829 24.728-31.903 26.811l-97.335 155.853c-10.525 17.278-19.197 38.263-4.376 63.952 11.144 19.392 106.576 168.103 137.86 195.711 24.094 21.295 44.088 24.679 63.415 27.949 3.189 0.536 6.426 1.074 9.713 1.725l137.177 24.289 114.076 103.062c11.030 10.168 39.842 22.923 69.060-2.196zM524.053-33.032c0-29.332-40.248-44.673-80.009-44.673s-80.009 15.341-80.009 44.673c0 58.616 160.018 58.616 160.018 0zM535.067 183.714c-98.099 0-158.327-33.204-158.327-57.005 0-23.085 55.281-56.615 141.879-56.615 24.354 0 50.221-13.617 50.221-38.833 0-37.467 86.793-79.212 211.329-79.212 124.52 0 211.297 41.746 211.297 79.212 0 37.129-85.222 78.461-207.944 79.201l-0.558-0.592c-16.106-16.236-32.683-21.539-46.756-21.539-13.324 0-24.435 4.75-30.813 9.435-0.83 0.619-1.61 1.301-2.326 2.083l-65.882 71.383-1.599 0.476c-27.239 7.668-63.426 12.005-100.521 12.005zM444.044-20.912c-26.843 0-42.901-7.825-46.886-12.136 3.954-4.295 20.010-12.12 46.886-12.12s42.933 7.825 46.886 12.12c-3.986 4.311-20.059 12.136-46.886 12.136zM635.987 355.803c-22.635-17.489-49.878-38.53-72.912-56.298l95.073-102.969c0.091-0.099 0.18-0.2 0.268-0.301l67.186-72.811c4.1-2.278 17.538-7.516 34.246 9.354 19.669 19.864 12.332 31.512 9.615 34.603-0.374 0.439-1.058 1.253-1.399 1.725zM571.41 787.739c-5.158 0-8.915-2.44-10.835-4.084l-117.427-106.088c-2.261-2.050-5.060-3.416-8.069-3.954l-141.504-25.054c-3.286-0.651-6.784-1.236-10.233-1.822-17.505-2.961-30.162-5.092-47.31-20.254-11.944-10.542-38.946-47.77-65.559-86.679l-7.237-10.635c-26.415-39.008-51.034-77.425-58.411-90.247-5.076-8.801-5.645-15 3.871-30.634l97.904-156.878c0.619-1.058 5.288-9.469 13.243-11.746 4.896-1.448 10.803-0.26 17.538 3.498 4.701 2.635 19.653 12.673 12.266 29.723l-61.724 145.929c-2.408 5.678-1.399 12.218 2.603 16.903l29.137 34.099c3.384 3.97 8.525 6.051 13.682 5.661 5.206-0.439 9.891-3.319 12.592-7.776 0.44-0.725 25.234-41.513 52.037-84.335l5.207-8.303c19.139-30.462 38.566-60.714 50.292-77.157 9.729-13.665 32.847-35.97 78.659-31.708 19.148 0.179 51.816 13.454 71.305 28.438 5.394 4.141 12.764 9.814 21.395 16.465l3.629 2.824 0.506 0.41c0.319 0.252 0.646 0.49 0.978 0.716 13.98 10.768 30.613 23.601 47.292 36.478l7.718 5.959c29.262 22.593 57.423 44.353 70.28 54.289l2.785 2.152c2.89 2.233 4.49 3.47 4.49 3.47 4.246 3.319 9.956 4.279 15.049 2.586l178.027-59.022c4.393-1.659 21.865-7.060 35.368 14.755 7.663 12.315 8.606 32.521 1.741 37.304-0.016 0-0.033 0.016-0.033 0.016-45.991 32.179-217.918 106.706-219.659 107.454-9.061 4.051-17.278 5.060-21.654 2.7l-189.952-101.647c-7.874-4.198-17.684-1.285-21.947 6.573l-75.373 138.185c-2.375 4.328-2.635 9.534-0.716 14.089s5.808 8.004 10.575 9.354c43.877 12.38 108.333 30.553 121.559 43.047 10.816 10.218 27.546 30.381 44.111 51.427l5.508 7.035c22.214 28.525 42.9 56.822 47.107 62.591l0.658 0.902c0.062 0.085 0.101 0.138 0.114 0.156 6.589 8.15 1.529 19.359-6.313 26.128-5.889 5.060-11.046 6.703-15.276 6.703zM898.459 507.685c23.671-0.195 45.812-9.599 62.374-26.453 16.578-16.789 25.607-39.11 25.412-62.814-0.081-8.948-7.338-16.139-16.269-16.139h-0.13c-8.996 0.081-16.22 7.419-16.139 16.399 0.13 15.016-5.58 29.104-16.040 39.712-10.509 10.673-24.517 16.627-39.468 16.757-8.996 0.065-16.22 7.419-16.14 16.383 0.082 8.948 7.338 16.155 16.27 16.155zM241.669 939.128c67.824 0 123.007-55.183 123.007-123.007 0-67.808-55.183-122.991-123.007-122.991-67.808 0-122.991 55.183-122.991 122.991 0 67.824 55.183 123.007 122.991 123.007zM241.669 906.591c-49.863 0-90.453-40.574-90.453-90.469 0-49.88 40.591-90.453 90.453-90.453 49.88 0 90.469 40.574 90.469 90.453 0 49.896-40.591 90.469-90.469 90.469zM642.002 853.855c5.824-6.833 4.978-17.098-1.871-22.923-3.042-2.603-6.8-3.871-10.525-3.871-4.604 0-9.175 1.952-12.397 5.743-19.539 22.988-54.11 25.802-77.129 6.264-6.849-5.808-17.114-4.978-22.939 1.871-5.808 6.833-4.978 17.098 1.871 22.923 36.669 31.122 91.837 26.681 122.991-10.005zM29.709 372.793c-4.783 0-9.534 2.099-12.738 6.15-13.357 16.789-19.359 37.808-16.887 59.201 2.505 21.328 13.129 40.395 29.967 53.719 7.011 5.58 17.245 4.409 22.842-2.651 5.58-7.044 4.393-17.278-2.651-22.858-10.021-7.923-16.35-19.294-17.83-31.984s2.083-25.2 10.021-35.189c5.596-7.028 4.425-17.261-2.603-22.858-2.994-2.375-6.573-3.53-10.119-3.53z" />
<glyph unicode="&#xe914;" glyph-name="njury-worker" horiz-adv-x="1301" d="M386.806 760.32c3.81-3.667 5.549-8.975 4.671-14.171l-5.436-32.010c3.014-0.51 6.026-1.053 9.023-1.658l48.685 22.573c2.806 1.292 5.931 1.769 8.96 1.323l33.125-4.75c5.229-0.749 9.755-4.033 12.068-8.784 2.327-4.734 2.152-10.314-0.463-14.89l-15.782-27.738c1.147-0.653 2.295-1.323 3.427-1.993l52.462 5.549c3.077 0.35 6.185-0.254 8.945-1.658l29.809-15.224c4.687-2.391 7.892-6.951 8.559-12.18 0.653-5.26-1.308-10.474-5.26-13.948l-22.812-20.181 49.338-10.202c3.044-0.621 5.819-2.12 8.004-4.289l23.768-23.577c3.763-3.699 5.421-9.023 4.464-14.204-0.971-5.213-4.432-9.581-9.246-11.7l-27.675-12.18 43.615-24.548c2.678-1.513 4.862-3.763 6.298-6.489l15.543-29.619c2.44-4.687 2.425-10.266-0.063-14.921-2.471-4.656-7.11-7.779-12.371-8.337l-28.854-3.092 32.919-34.96c2.12-2.231 3.54-5.037 4.082-8.082l5.994-32.919c0.956-5.182-0.733-10.504-4.495-14.22-3.746-3.682-9.102-5.389-14.283-4.258l-28.903 5.723 21.281-43.806c1.355-2.775 1.864-5.882 1.482-8.927l-1.404-11.135 47.179-0.015c-0.999 1.432-1.934 2.905-2.803 4.407-14.936 25.906-8.051 55.491 16.771 71.942l195.679 118.859c7.381 4.305 17.073 7.763 23.051 9.229l155.427 37.317 34.991 52.225 26.495-17.757-38.466-57.372c-2.248-3.331-5.626-5.707-9.534-6.632l-161.405-38.77c-3.763-0.924-10.441-3.427-14.252-5.626l-194.898-118.364c-15.432-10.251-8.688-24.884-6.234-29.109 3.969-6.871 15.208-17.982 29.459-10.889 19.966 10.107 44.578 22.481 69.607 35.034l12.532 6.281c12.526 6.277 24.983 12.51 36.839 18.442l21.309 10.652c3.151 1.574 6.224 3.11 9.207 4.6l8.665 4.329c12.555 6.269 23.026 11.495 30.25 15.101l7.541 3.763c4.066 2.039 8.832 2.216 13.073 0.526 8.434-3.395 21.568-8.465 35.023-13.663l7.8-3.023c15.549-6.030 30.418-11.832 37.919-14.975 5.674-2.391 9.484-7.86 9.724-14.044 0.27-6.169-3.060-11.923-8.544-14.794l-126.812-66.268c-4.192-2.44-7.653-7.127-9.183-12.833-1.898-7.158-0.589-15.143 3.682-22.525 10.363-17.776 25.473-21.266 35.852-16.691l129.697 65.439 94.69 39.249c17.167 6.298 29.906 15.128 42.165 40.3l63.559 150.852 29.396-12.386-63.925-151.649c-18.316-37.59-40.396-49.767-59.604-56.798l-23.055-9.543c10.080-6.188 16.814-17.311 16.814-29.976v-145.958c0-19.4-15.765-35.167-35.167-35.167h-738.207c-19.229 0-34.913 15.513-35.163 34.699l-22.661-22.614c-2.185-2.185-4.973-3.699-8.004-4.321l-32.743-6.823c-1.085-0.223-2.185-0.335-3.252-0.335-4.082 0-8.067 1.579-11.047 4.448-3.81 3.667-5.549 8.96-4.671 14.155l4.926 29.043c-4.335 0.765-8.672 1.642-12.945 2.582l-44.269-20.564c-2.79-1.308-5.931-1.738-8.975-1.323l-33.125 4.765c-5.213 0.765-9.74 4.033-12.052 8.784-2.327 4.734-2.152 10.298 0.463 14.89l14.858 26.096c-1.864 1.1-3.731 2.2-5.563 3.331l-49.386-5.245c-3.060-0.319-6.185 0.239-8.927 1.658l-29.843 15.224c-4.702 2.391-7.907 6.951-8.577 12.18s1.308 10.458 5.245 13.948l22.844 20.213-49.338 10.202c-3.029 0.621-5.787 2.104-7.986 4.272l-23.783 23.545c-3.763 3.699-5.436 9.039-4.481 14.22 0.971 5.182 4.432 9.565 9.246 11.7l27.706 12.195-43.646 24.517c-2.694 1.53-4.895 3.794-6.328 6.536l-15.495 29.668c-2.425 4.671-2.407 10.251 0.079 14.89 2.487 4.656 7.127 7.779 12.371 8.337l28.806 3.077-32.904 34.943c-2.12 2.231-3.54 5.037-4.097 8.082l-5.963 32.936c-0.94 5.182 0.749 10.49 4.51 14.204 3.746 3.682 9.086 5.341 14.283 4.258l28.822-5.707-21.249 43.791c-1.355 2.775-1.864 5.898-1.482 8.96l4.208 33.207c0.67 5.229 3.856 9.804 8.559 12.195 4.671 2.376 10.283 2.295 14.905-0.207l26.398-14.411-7.189 49.178c-0.446 3.044 0 6.185 1.292 8.975l14.029 30.416c2.2 4.782 6.647 8.162 11.844 9.039 5.182 0.796 10.504-0.893 14.139-4.702l20.516-21.409 7.794 48.365c0.495 3.060 1.864 5.913 3.938 8.195l22.525 24.789c3.556 3.906 8.799 5.882 14.013 5.053 5.229-0.733 9.74-4.001 12.083-8.72l13.869-28.072 23.625 46.102c1.404 2.758 3.587 5.037 6.281 6.567l29.012 16.595c4.575 2.615 10.138 2.79 14.89 0.51 4.734-2.311 8.034-6.807 8.799-12.020l4.575-31.086 36.841 36.728c2.2 2.185 4.973 3.699 7.986 4.321l32.76 6.839c5.182 1.132 10.538-0.463 14.315-4.097zM870.279 272.952l-471.688-0.006c-1.801 0-3.284-1.45-3.284-3.267v-145.958c0-1.801 1.482-3.284 3.284-3.284h738.207c1.801 0 3.284 1.482 3.284 3.284v145.958c0 1.818-1.482 3.267-3.284 3.267l-46.14 0.010-5.457-2.27-129.458-65.358c-6.839-2.981-14.539-4.64-22.492-4.64-19.321 0-40.22 9.74-54.424 34.194-6.988 12.014-9.913 25.257-8.548 38.071zM356.134 728.438l-5.229-1.1-38.912-38.785c-2.471-2.487-5.707-4.066-9.183-4.527-6.074-0.781-12.052-1.769-17.997-2.933-4.305-0.908-8.735 0.079-12.29 2.6s-5.947 6.376-6.584 10.713l-3.746 25.441-4.624-2.647-25.091-48.955c-1.593-3.109-4.16-5.612-7.318-7.11-5.404-2.582-10.697-5.389-15.877-8.337-3.841-2.169-8.385-2.663-12.547-1.371-4.208 1.292-7.684 4.242-9.629 8.162l-11.494 23.26-3.603-3.984-8.769-54.392c-0.558-3.507-2.279-6.712-4.878-9.12-3.841-3.603-7.572-7.349-11.207-11.192-2.981-3.204-7.158-5.021-11.525-5.037-4.223 0.063-8.577 1.769-11.59 4.926l-17.902 18.667-2.248-4.862 7.907-54.072c0.526-3.474-0.144-7.046-1.881-10.123-2.742-4.862-5.404-9.773-7.829-14.81-1.881-3.938-5.308-6.935-9.484-8.29-4.113-1.338-8.688-0.908-12.531 1.196l-22.381 12.211-0.67-5.308 23.593-48.604c1.563-3.173 1.993-6.776 1.275-10.251-1.147-5.323-2.12-10.761-2.917-16.228-0.621-4.321-2.997-8.195-6.567-10.729-3.556-2.518-7.986-3.507-12.307-2.615l-24.662 4.878 0.956-5.245 36.585-38.816c2.44-2.6 3.953-5.931 4.272-9.484 0.51-5.499 1.116-10.983 1.976-16.404 0.67-4.305-0.463-8.72-3.125-12.163-2.647-3.474-6.6-5.692-10.936-6.152l-24.455-2.615 2.471-4.734 45.575-25.601c3.092-1.753 5.531-4.495 6.902-7.779 2.407-5.787 4.99-11.51 7.812-17.121 1.961-3.906 2.248-8.434 0.765-12.547s-4.575-7.444-8.577-9.198l-21.984-9.693 3.779-3.746 50.295-10.394c3.54-0.733 6.712-2.631 9.023-5.404 4.223-5.070 8.64-9.915 13.199-14.602 3.044-3.141 4.687-7.366 4.51-11.733-0.16-4.352-2.104-8.449-5.355-11.334l-17.6-15.575 4.782-2.44 50.182 5.341c3.618 0.413 7.253-0.478 10.314-2.455 7.205-4.64 14.65-8.894 22.173-12.704 3.891-1.961 6.823-5.421 8.082-9.612 1.26-4.176 0.765-8.688-1.404-12.482l-11.318-19.895 5.292-0.765 44.937 20.867c3.284 1.513 6.966 1.864 10.49 1.036 10.187-2.471 20.707-4.383 31.229-5.626 4.321-0.51 8.258-2.79 10.872-6.281s3.682-7.907 2.966-12.211l-3.763-22.077 5.229 1.1 34.671 34.624c1.986 1.973 4.445 3.396 7.14 4.113l0.011 67.392c-8.662-1.167-17.419-1.753-26.203-1.753-107.123 0-194.276 87.183-194.276 194.324s87.15 194.308 194.276 194.308c107.173 0 194.339-87.166 194.339-194.308 0-44.159-14.921-86.421-41.813-120.43l79.202 0.001c1.42 2.686 2.775 5.399 4.33 8.643 3.682 7.763 12.864 11.254 20.755 7.748l21.011-9.183 0.398 3.204-21.712 44.699c-1.579 3.22-2.010 6.888-1.229 10.394 1.404 6.391 2.487 12.879 3.411 19.449 0.606 4.352 2.966 8.258 6.552 10.791 3.54 2.518 8.020 3.54 12.322 2.631l22.253-4.399-0.956 5.229-34.671 36.793c-2.425 2.566-3.921 5.867-4.258 9.373-0.606 6.234-1.45 12.434-2.487 18.54-0.719 4.321 0.367 8.769 3.029 12.275 2.647 3.492 6.632 5.738 10.999 6.216l23.067 2.471-2.471 4.702-44.73 25.187c-3.077 1.705-5.484 4.399-6.854 7.636-2.566 6.041-5.467 11.939-8.418 17.757-1.976 3.906-2.264 8.449-0.781 12.578s4.575 7.46 8.577 9.213l21.745 9.581-3.794 3.763-51.444 10.616c-3.427 0.719-6.536 2.534-8.832 5.182-4.113 4.765-8.37 9.436-12.785 13.869-3.109 3.109-4.798 7.366-4.671 11.764 0.144 4.399 2.089 8.544 5.389 11.446l18.252 16.149-4.75 2.425-53.052-5.596c-3.492-0.382-6.998 0.413-10.012 2.248-6.489 3.969-13.391 7.779-20.532 11.303-3.938 1.945-6.888 5.421-8.18 9.629-1.292 4.192-0.781 8.735 1.386 12.547l12.322 21.68-5.276 0.749-49.194-22.812c-3.155-1.45-6.695-1.834-10.138-1.1-9.12 2.010-18.444 3.54-27.722 4.559-4.352 0.495-8.32 2.742-10.968 6.25-2.631 3.507-3.731 7.955-2.997 12.275zM337.229 587.684c-89.542 0-162.393-72.851-162.393-162.425s72.851-162.442 162.393-162.442c8.802 0 17.577 0.703 26.203 2.093l-0.006 4.769c0 19.385 15.782 35.15 35.167 35.15l47.651-0.001c34.044 30.816 53.445 74.389 53.445 120.43 0 89.573-72.883 162.425-162.458 162.425zM951.55 380.778l-1.178-0.573c-4.161-2.078-9.404-4.695-15.503-7.74l-11.856-5.921c-1.41-0.704-2.847-1.421-4.312-2.155l-20.436-10.213c-9.262-4.631-19.126-9.565-29.285-14.648l-12.311-6.165c-6.207-3.109-12.477-6.251-18.741-9.391l-12.508-6.273c-8.694-4.361-17.294-8.684-25.621-12.872l84.926 0.026c3.434 3.634 7.391 6.778 11.796 9.324l96.556 50.469c-4.208 1.642-8.513 3.299-12.801 4.973-10.426 4.033-20.676 7.986-28.727 11.159zM337.261 504.366c43.631 0 79.133-35.486 79.133-79.101 0-43.631-35.501-79.147-79.133-79.147s-79.133 35.517-79.133 79.147c0 43.615 35.501 79.101 79.133 79.101zM337.261 472.483c-26.065 0-47.25-21.186-47.25-47.218 0-26.065 21.186-47.265 47.25-47.265s47.25 21.203 47.25 47.265c0 26.031-21.186 47.218-47.25 47.218zM835.086 541.227c-5.308 6.998-15.319 8.385-22.349 3.060l-84.472-64.035c-7.013-5.323-8.402-15.319-3.077-22.334 3.125-4.129 7.892-6.313 12.722-6.313 3.349 0 6.742 1.053 9.629 3.236l84.472 64.050c7.013 5.323 8.402 15.319 3.077 22.334zM750.132 617.997c-7.986 3.841-17.471 0.446-21.266-7.478l-39.677-82.703c-3.825-7.938-0.478-17.471 7.46-21.266 2.231-1.085 4.575-1.579 6.888-1.579 5.947 0 11.637 3.331 14.378 9.039l39.694 82.719c3.81 7.938 0.463 17.471-7.478 21.266z" />
<glyph unicode="&#xe915;" glyph-name="menu" d="M0 587.080h1024v-38.642h-1024v38.642zM0 304.896h1024v-38.642h-1024v38.642z" />
<glyph unicode="&#xe916;" glyph-name="quote-start" d="M0 34.057v206.636c0 62.756 11.289 129.531 33.866 200.323s55.486 139.289 98.727 205.489c43.241 66.201 95.473 123.79 156.699 172.771l146.941-119.39c-48.215-68.879-90.116-140.628-125.704-215.246s-53.381-154.404-53.381-239.354v-211.228h-257.148zM587.766 34.057v206.636c0 62.756 11.289 129.531 33.866 200.323s55.486 139.289 98.727 205.489c43.241 66.201 95.473 123.79 156.699 172.771l146.941-119.39c-48.215-68.879-90.116-140.628-125.704-215.246s-53.381-154.404-53.381-239.354v-211.228h-257.148z" />
<glyph unicode="&#xe917;" glyph-name="close" d="M90.15 908.386l4.020-3.549 417.83-417.797 417.83 417.797 4.020 3.549c16.738 13.014 40.94 11.831 56.32-3.549 16.662-16.662 16.662-43.677 0-60.34v0l-417.797-417.83 417.797-417.83c16.662-16.662 16.662-43.677 0-60.34-15.381-15.381-39.583-16.564-56.32-3.549l-4.020 3.549-417.83 417.797-417.83-417.797-4.020-3.549c-16.738-13.014-40.94-11.831-56.32 3.549-16.662 16.662-16.662 43.677 0 60.34v0l417.797 417.83-417.797 417.83c-16.662 16.662-16.662 43.677 0 60.34 15.381 15.381 39.583 16.564 56.32 3.549z" />
<glyph unicode="&#xe918;" glyph-name="check" d="M181.314 443.686l188.216-217.635 549.948 652.894c41.162 44.107 105.885-2.945 73.525-52.944l-541.114-826.381c-41.162-52.944-97.052-58.835-144.107-5.891l-273.525 326.428c-52.944 76.471 82.363 185.268 147.055 123.521l0.002 0.008z" />
<glyph unicode="&#xe919;" glyph-name="balance" d="M879.014 860.148v0c-1.398 1.246-2.958 2.299-4.64 3.131h-1.325c-1.848 0.727-3.813 1.118-5.799 1.153h-303.553v23.73c0 27.941-22.775 50.59-50.868 50.59s-50.868-22.65-50.868-50.59v-23.071h-303.553c-4.702-0.053-9.159-2.089-12.261-5.603-0.761-0.74-1.429-1.57-1.988-2.471-12.427-20.763-118.638-203.681-118.638-270.091 0-72.809 59.348-131.832 132.556-131.832s132.556 59.023 132.556 131.832c0 54.545-72.077 188.19-104.388 245.208h275.054v-698.71h-114.164c-9.152 0-16.57-7.378-16.57-16.479v-69.212c-64.234-0.811-115.901-52.784-115.986-116.671 0-9.102 7.418-16.479 16.57-16.479h564.855c9.152 0 16.57 7.378 16.57 16.479-0.091 64.463-52.662 116.671-117.478 116.671v69.212c0 9.102-7.418 16.479-16.57 16.479h-115.986v698.71h275.054c-33.14-57.017-104.222-190.662-104.222-245.208 0-72.809 59.348-131.832 132.556-131.832s132.556 59.023 132.556 131.832c0 65.916-106.377 249.327-118.638 270.091-0.16 1.070-0.438 2.12-0.828 3.131zM158.405 815.326c33.14-58.666 86.327-160.506 97.429-211.92h-194.857c11.102 51.415 64.456 152.925 97.429 211.92zM158.405 487.722c-48.6-0.112-90.157 34.737-98.257 82.396h196.349c-8.089-47.597-49.554-82.427-98.091-82.396v0zM495.098 888.163c0 9.739 7.937 17.633 17.729 17.633s17.729-7.894 17.729-17.633v-23.071h-35.459v23.071zM777.939-52.954h-530.224c7.769 39.38 42.496 67.77 82.848 67.729h364.53c40.351 0.041 75.078-28.349 82.848-67.729zM661.953 47.733h-298.252v52.733h298.252v-52.733zM529.397 133.918h-34.299v698.215h35.459l-1.16-698.215zM963.518 603.899h-193.697c11.102 51.415 64.456 153.254 97.429 211.92 32.973-59.489 86.327-161 97.429-212.414l-1.16 0.494zM866.090 488.546c-48.537-0.032-90.002 34.798-98.091 82.395h197.509c-7.737-47.986-49.391-83.265-98.257-83.219l-1.16 0.824z" />
<glyph unicode="&#xe91a;" glyph-name="attorney" d="M573.005 417.124h-19.99c-43.686 0-79.1-35.817-79.1-79.999s35.414-79.999 79.1-79.999h279.178c43.686 0 79.1 35.817 79.1 79.999s-35.414 79.999-79.1 79.999h-19.99v337.25h19.99c29.11-1.375 56.609 13.548 71.57 38.839s14.962 56.854 0 82.145c-14.962 25.291-42.461 40.214-71.57 38.839h-279.178c-29.11 1.375-56.609-13.548-71.57-38.839s-14.962-56.854 0-82.145c14.962-25.291 42.461-40.214 71.57-38.839h19.99v-93.593h-490.112c-21.125 0.216-41.619-7.27-57.731-21.090-15.802-13.417-24.997-33.164-25.161-54.030 2.592-43.79 39.57-77.3 82.891-75.119h490.112v-93.419zM876.826 337.125c0-24.93-19.984-45.141-44.634-45.141h-279.178c-24.65 0-44.634 20.21-44.634 45.141s19.984 45.141 44.634 45.141h279.178c24.65 0 44.634-20.21 44.634-45.141zM508.38 834.199c0 24.93 19.984 45.141 44.634 45.141h279.178c16.577 1.043 32.355-7.309 40.955-21.678s8.601-32.381 0-46.75c-8.601-14.37-24.379-22.722-40.955-21.678h-279.178c-24.584 0-44.539 20.104-44.634 44.967zM777.735 754.375v-337.25h-170.264v110.5c0 0 0 0 0 0v115.031c0 0 0 0 0 0v111.72h170.264zM82.892 545.401c-24.283-2.134-45.798 15.753-48.426 40.261 0.203 10.755 5.051 20.882 13.27 27.712 9.69 8.121 21.882 12.56 34.467 12.549h490.802v-80.522h-490.112zM822.197 161.267h-259.532c-53.581-0.092-104.926-21.731-142.716-60.147s-58.923-90.454-58.741-144.643c0-9.626 7.717-17.429 17.234-17.429h628.323c9.518 0 17.234 7.803 17.234 17.429 0.182 54.25-20.998 106.341-58.863 144.767s-89.298 60.024-142.939 60.024v0zM396.536-26.094c8.824 86.106 80.534 151.558 166.129 151.632h259.532c85.726 0.105 157.635-65.394 166.473-151.632h-592.133z" />
<glyph unicode="&#xe91b;" glyph-name="opportunity" horiz-adv-x="939" d="M460.867 785.204c-12.425-0.011-24.84-0.739-37.188-2.196-85.874-10.393-163.39-56.523-213.491-127.049-50.092-70.526-68.116-158.903-49.646-243.412s71.719-157.317 146.668-200.516v-41.449c0-27.173 10.796-53.222 30.003-72.438 19.216-19.207 45.265-30.002 72.439-30.002h102.433c27.173 0 53.223 10.795 72.439 30.002 19.207 19.215 30.003 45.264 30.003 72.438v41.449c78.664 45.385 133.216 123.249 148.992 212.691 15.769 89.441-8.849 181.274-67.243 250.831-58.401 69.557-144.585 109.703-235.403 109.65h-0.005zM588.852 256.341l-25.544-14.799v-70.971c-0.017-13.582-5.419-26.597-15.022-36.201s-22.621-15.005-36.201-15.022h-102.433c-13.582 0.017-26.597 5.419-36.201 15.022s-15.005 22.621-15.022 36.201v70.971l-25.544 14.791c-62.457 35.97-106.858 96.601-122.283 166.996-15.426 70.405-0.446 144.052 41.252 202.829 41.698 58.787 106.256 97.262 177.803 105.972 10.359 1.217 20.784 1.834 31.212 1.834 75.686 0.051 147.517-33.398 196.187-91.37 48.661-57.973 69.172-134.507 56.010-209.037-13.162-74.538-58.643-139.422-124.211-177.226l-0.001 0.009zM588.912-8.693c0.009-6.791-2.693-13.308-7.495-18.11-4.802-4.81-11.318-7.503-18.11-7.503h-51.224c0-18.298-9.758-35.207-25.603-44.355s-35.378-9.15-51.224 0c-15.847 9.15-25.603 26.057-25.603 44.355h-51.224c-14.139 0-25.603 11.473-25.603 25.612s11.464 25.612 25.603 25.612h204.883c6.791 0 13.308-2.693 18.11-7.503 4.802-4.802 7.503-11.318 7.495-18.11zM102.344 477.889c0-6.799-2.693-13.316-7.503-18.118-4.802-4.802-11.318-7.494-18.11-7.494h-51.215c-14.148 0-25.612 11.464-25.612 25.612 0 14.139 11.464 25.603 25.612 25.603h51.215c6.791 0.009 13.308-2.693 18.11-7.494 4.811-4.802 7.503-11.318 7.503-18.11v0zM921.845 477.889c0-6.799-2.693-13.316-7.495-18.118s-11.318-7.494-18.119-7.494h-51.215c-14.139 0-25.612 11.464-25.612 25.612 0 14.139 11.473 25.603 25.612 25.603h51.215c6.799 0.009 13.317-2.693 18.119-7.494s7.495-11.318 7.495-18.11v0zM435.255 862.029v51.215c0 14.139 11.473 25.612 25.612 25.612s25.612-11.473 25.612-25.612v-51.215c0-14.148-11.473-25.612-25.612-25.612s-25.612 11.464-25.612 25.612zM786.825 803.86c4.802-4.802 7.503-11.318 7.503-18.11s-2.701-13.308-7.503-18.11l-36.21-36.21c-4.785-4.879-11.327-7.649-18.161-7.683s-13.402 2.667-18.239 7.503c-4.836 4.836-7.529 11.395-7.495 18.238 0.035 6.833 2.796 13.368 7.683 18.152l36.21 36.218c4.802 4.802 11.31 7.494 18.101 7.494s13.308-2.692 18.11-7.494zM171.139 731.431l-36.21 36.21c-9.827 10.032-9.741 26.101 0.18 36.030 9.93 9.93 26.007 10.007 36.030 0.18l36.219-36.21c4.879-4.785 7.649-11.327 7.683-18.161s-2.667-13.402-7.503-18.238c-4.836-4.828-11.404-7.529-18.239-7.495s-13.377 2.796-18.161 7.683v0z" />
<glyph unicode="&#xe91c;" glyph-name="people" d="M512 938.752c159.23 0 288.768-129.526 288.768-288.743 0-110.121-61.968-206.040-152.868-254.723 195.162-58.523 337.779-239.801 337.779-453.752 0-14.886-12.066-26.951-26.954-26.951s-26.954 12.065-26.954 26.951c0 231.438-188.311 419.732-419.769 419.732s-419.769-188.294-419.769-419.732c0-14.886-12.066-26.951-26.954-26.951s-26.954 12.065-26.954 26.951c0 213.95 142.617 395.229 337.782 453.775-90.903 48.659-152.871 144.578-152.871 254.7 0 159.215 129.538 288.743 288.768 288.743zM512 884.848c-129.506 0-234.86-105.343-234.86-234.839s105.353-234.839 234.86-234.839c129.506 0 234.86 105.343 234.86 234.839s-105.353 234.839-234.86 234.839z" />
</font>
</defs>
</svg>
